peliculas recientes

life of pi 2012 webrip Audio Latino

contenedor: mkv

audio: ac3 2ch

nota !! si tienes algun problema con los codecs y que no la puedas reproducir
porfavor de comentar aqui o en mi pagina de facebook...

solo es webrip- pronto viene el BRrip

link:


http://thepiratebay.se/torrent/8169843/Life_of_pi_[2012]_webrip_-audio_latino

company of heroes 2013 Audio Latino

GENERAL

Format : MKV
Format version : Version 4 / Version 2
File size : 1.18 GiB
Duration : 1h 40mn
Overall bit rate : 1 688 Kbps
Encoded date : UTC 2013-02-20 08:26:56
Writing application : mkvmerge v6.0.0 ('Coming Up For Air') built on Jan 20 2013 09:52:00
Writing library : libebml v1.3.0 + libmatroska v1.4.0

Video
ID : 1
Format : AVC
Format/Info : Advanced Video Codec
Format profile : High@L3.1
Format settings, CABAC : Yes
Format settings, ReFrames : 4 frames
Codec ID : V_MPEG4/ISO/AVC
Duration : 1h 40mn
Bit rate : 1 047 Kbps
Width : 1 280 pixels
Height : 720 pixels
Display aspect ratio : 16:9
Frame rate mode : Constant
Frame rate : 23.976 fps
Color space : YUV
Chroma subsampling : 4:2:0
Bit depth : 8 bits
Scan type : Progressive
Bits/(Pixel*Frame) : 0.047
Stream size : 729 MiB (60%)
Default : Yes
Forced : No

Audio
ID : 2
Format : AC-3
Format/Info : Audio Coding 3
Mode extension : CM (complete main)
Format settings, Endianness : Big
Codec ID : A_AC3
Duration : 1h 40mn
Bit rate mode : Constant
Bit rate : 640 Kbps
Channel(s) : 6 channels
Channel positions : Front: L C R, Side: L R, LFE
Sampling rate : 48.0 KHz
Bit depth : 16 bits
Compression mode : Lossy
Stream size : 460 MiB (38%)
Default : Yes
Forced : No

LINK:


http://thepiratebay.se/torrent/8167231/Company_of_heroes_[2013]_720p-BRip_-audio_latino
 
Support : CinestrenoLatino | cinecito | latino
Copyright © 2011-2013. CinestrenoLatino - All Rights Reserved
Template Created by cinestrenoLatino
Rediseñada por cinestrenoLatino Derechos reservados
Proudly powered by wordpress.org